ประยุกต์ใช้ ระบบเหรียญ โพสล่าสุด โพสสำคัญ เครื่องมือ สมาชิก สถิติฟอรั่ม ระบบธนาคาร

  • 193เข้าชม
  • 1ตอบกลับ

[ฉายที่นิพร้อมโรง!!] 47 Ronin (2013) 47 โรนิน มหาศึกซามูไร [หนังซูม][พากย์ ไทยโรงชัด][.AVI][1.41GB]

เพศ : ไม่ระบุเพศ

โพสต์ : 1046

สำคัญ : 0

เงิน : 0
ความดี : 1072
เครดิต : 1047
จิตพิสัย: 1072
ออนไลน์ : 184 ชม
[ฉายที่นิพร้อมโรง!!] 47 Ronin (2013) 47 โรนิน มหาศึกซามูไร [หนังซูม][พากย์ ไทยโรงชัด][.AVI][1.41GB]




Format : AVI
Format/Info : Audio Video Interleave
Format profile : OpenDML
Format settings : rec
File size : 1.41 GiB
Duration : 1h 48mn
Overall bit rate : 1 865 Kbps
Writing application : AVI-Mux GUI 1.17.8, Aug 30 2008 12:36:58

Video
ID : 0
Format : MPEG-4 Visual
Format profile : Advanced Simple@L5
Format settings, BVOP : 2
Format settings, QPel : No
Format settings, GMC : No warppoints
Format settings, Matrix : Custom
Codec ID : XVID
Codec ID/Hint : XviD
Duration : 1h 48mn
Bit rate : 1 667 Kbps
Width : 720 pixels
Height : 368 pixels
Display aspect ratio : 1.957
Frame rate : 29.970 fps
Color space : YUV
Chroma subsampling : 4:2:0
Bit depth : 8 bits
Scan type : Progressive
Compression mode : Lossy
Bits/(Pixel*Frame) : 0.210
Stream size : 1.26 GiB (89%)
Writing library : XviD 1.2.1 (UTC 2008-12-04)

Audio
ID : 1
Format : AC-3
Format/Info : Audio Coding 3
Mode extension : CM (complete main)
Format settings, Endianness : Big
Codec ID : 2000
Duration : 1h 48mn
Bit rate mode : Constant
Bit rate : 192 Kbps
Channel(s) : 2 channels
Channel positions : Front: L R
Sampling rate : 48.0 KHz
Bit depth : 16 bits
Compression mode : Lossy
Stream size : 149 MiB (10%)
Alignment : Aligned on interleaves
Interleave, duration : 64 ms (1.92 video frames)
Interleave, preload duration : 192 ms


















AVI 1.41GB





บทความที่เกี่ยวข้อง

ระดับ : เด็กประถม
เพศ : ไม่ระบุเพศ

โพสต์ : 74

สำคัญ : 0

เงิน : 0
ความดี : 138
เครดิต : 2
จิตพิสัย: 138
ออนไลน์ : 76 ชม
    
รายละเอียดไฟล์แนบ
กล่องตอบกลับด่วน

คุณไม่มีสิทธิ์ใช้งานส่วนนี้, กรุณาเข้าสู่ระบบ หรือ ลงทะเบียน
สามารถอัพโหลดไฟล์แนบ สำหรับโพสได้